[cleancoders.com] Clean Code [2011-2015, ENG]

Ответить
Автор
Сообщение

Ice_Harley

Стаж: 9 лет 4 месяца

Сообщений: 6


Ice_Harley · 04-Июн-15 07:14 (4 года 2 месяца назад, ред. 06-Июн-17 21:56)

Clean Code
Год выпуска: 2011-2015
Производитель: cleancoders.com
Сайт производителя: https://cleancoders.com/
Автор: Uncle Bob
Продолжительность: 35 часов
Тип раздаваемого материала: Видеоурок
Язык: Английский
Описание: Clean Code - это серия обучающих роликов для профессиональных программистов. Автор - Роберт Мартин, также известный как Дядюшка Боб (Uncle Bob), эксперт в области проектирования и разработки программного обеспечения. Предложил набор принципов объектно-ориентированного дизайна SOLID, стал со-автором Agile Manifesto. Является автором таких книг, как:
  1. Agile Principles, Patterns, And Practices in C#
  2. Clean Code: A Handbook of Agile Software Craftsmanship
  3. The Clean Coder: A Code of Conduct for Professional Programmers
и других.
Сам курс объясняет принципы написания "чистого кода": как правильно именовать переменные/методы/классы, как разбивать код на функции и модули, как форматировать код. Пристальное внимание уделяется технике TDD и всему, что с ней связано: дизайну тестов, порядку написания тестов, мокам. Подробно рассматривается каждый из принципов SOLID. Несколько эпизодов посвящено разделению программ на компоненты, связи между ними. Далее рассматриваются основные паттерны объектно-ориентированного дизайна, формулируются принципы "чистой архитектуры" приложений.
Курс построен в виде диалога множества персонажей в исполнении Роберта Мартина. Некоторые из них - это герои фильмов (например Спок, Доктор Кто, Кирк), другие - просто яркие характеры: Эйнштейн с немецким акцентом, бородатый инженер, который объясняет научные речи Эйнштейна простыми словами, Шерлок Холмс с трубкой, монах и конечно же неразлучная тройка программистов: Danny Dotnet, Ruby Rod и Jerry Java. Сам дядюшка Боб выступает в роли мудрого и терпеливого учителя, который, тем не менее, забавно выходит из себя при упоминании XML.
Каждый эпизод начинается с небольшого вступления, в котором доходчиво объясняется тот или иной научный факт, в основном из области физики или астрономии.
Английский язык в курсе весьма прост и понятен. У тех, кто способен читать техническую документацию проблем с пониманием на слух не возникнет. Да и мысли свои автор умеет формулировать четко и ясно.
Содержание
E01 - Clean Code.mp4
E02 - Names.mp4
E03 - Functions.mp4
E03a - Testable Html Sequence.m4v
E03b - Prime Generator Sequence.m4v
E03c - Video Store Sequence.m4v
E04 - Function Structure.mp4
E04a - Stack Kata Screencast.m4v
E05 - Form.mp4
E05a - Lychrel Numbers Screencast.m4v
E06 - TDD Part 1.mp4
E06 - TDD Part 2.mp4
E07 - Architecture, Use Cases, and High Level Design.mp4
E08 - Foundations of the SOLID principles.mp4
E09 - The Single Responsibility Principle.mp4
E09a - MasterMind.zip
E10 - The Open-Closed Principle.mp4
E11 - The Liskov Substitution Principle Part 1.mp4
E11 - The Liskov Substitution Principle Part 2.mp4
E12 - The Interface Segregation Principle.mpg
E13 - The Dependency Inversion Principle.mpg
E14 - Solid Case Study.mp4
E15 - SOLID Components.mp4
E16 - Component Cohesion.mov
E17 - Component Coupling.mp4
E18 - Component Case Study.mp4
E18a - Diagrams.zip
E19 - Advanced TDD - Part 1.mp4
E19 - Advanced TDD - Part 2.mp4
E19a - Extras-P1.zip
E19b - Extras-P2.zip
E20 - Clean Tests.mp4
E20a - Extras.zip
E21 - Test Design.mp4
E21a - Extras.zip
E22 - Test Process.mp4
E22a - Extras.zip
E23 - Mocking - Part 1.mp4
E23 - Mocking - Part 2.mp4
E23a - Extras-v2.zip
E24 - Transformation Priority Premise - Part 1.mp4
E24 - Transformation Priority Premise - Part 2.mp4
E24a - Extras.zip
E25 - Design Patterns.mp4
E25a - Extras.zip
E26 - Factories.mp4
E26a - Extras.zip
E27 - Strategy & Template Method Patterns.mp4
E27a - Extras.zip
E28 - Finite State Machines and The State Pattern.mp4
E28a - Extras.zip
E29 - SMC Parser.mp4
E29a - Extras.zip
E30 - SMC Generator.mp4
31/CleanCode-E31 The Observer Pattern.txt
31/CleanCode-E31-1080p.mp4
31/CleanCode-E31-Extras.zip
32/CleanCode-E32 Pile O'Patterns.txt
32/CleanCode-E32-1080p.mp4
32/CleanCode-E32-Extras.zip
33/CleanCode-E33-1080p.mp4
33/CleanCode-E33-Extras.zip
34/CleanCode-E34-1080p.mp4
34/CleanCode-E34-Extras.zip
35/CleanCode-E35, Behavior Driven Development.txt
35/CleanCode-E35-1080p.mp4
35/CleanCode-E35-Extras.zip
36/CleanCode-E36, Behavior Driven Development Design.txt
36/CleanCode-E36-1080p.mp4
36/CleanCode-E36-Extras.zip
37/CleanCode-E37-1080p.mp4
37/CleanCode-E37-Extras.zip
37/readme.e37.txt
38/CleanCode-E38-1080p.mp4
38/CleanCode-E38-Extras.zip
38/readme.e38.txt
39/CleanCode-E39-1080p.mp4
39/CleanCode-E39-Extras.zip
39/readme.e39.txt
40/CleanCode-E40-1080p.mp4
40/CleanCode-E40-Extras .zip
40/readme.e40.txt
41/CleanCode-E41-1080p.mp4
41/readme.e41.txt
42/Clean.Coders.42.1.Life, The Universe, and Everything.mp4
42/Clean.Coders.42.2.Life, The Universe, and Everything.mp4
42/readme.e42.txt
43/CleanCode-E43-1080p.mp4
43/CleanCode-E43-Extras.zip
43/readme.e43.txt
44/CleanCode-E44-1080p.mp4
44/CleanCode-E44-Extras.zip
44/readme.e44.txt
45/CleanCode-E45-1080p.mp4
45/CleanCode-E45-Extras.zip
45/readme.e45.txt
Файлы примеров: присутствуют
Формат видео: MP4
Видео/аудио
File: E01 - Clean Code.mp4
Size: 221 Мбайт (232235688 bytes)
Duration: 00:23:11.258
Format: MPEG-4
Video #0: 178 Мбайт (81%) AVC 960x540 (16:9) 29,970 кадров/сек 1076 Кбит/сек
Audio #0: 42,5 Мбайт (19%) AAC LC 44,1 КГц 2 канала 256 Кбит/сек
File: E02 - Names.mp4
Size: 365 Мбайт (382291909 bytes)
Duration: 00:43:51.398
Format: MPEG-4
Video #0: 283 Мбайт (78%) AVC 960x540 (16:9) 29,970 кадров/сек 903 Кбит/сек
Audio #0: 80,3 Мбайт (22%) AAC LC 44,1 КГц 2 канала 256 Кбит/сек
File: E03 - Functions.mp4
Size: 1,75 Гбайт (1879477486 bytes)
Duration: 00:59:41.114
Format: MPEG-4
Video #0: 1,64 Гбайт (94%) AVC 1920x1080 (16:9) 29,970 кадров/сек 3939 Кбит/сек
Audio #0: 109 Мбайт (6%) AAC LC 48,0 КГц 2 канала 256 Кбит/сек
File: E03a - Testable Html Sequence.m4v
Size: 154 Мбайт (161724779 bytes)
Duration: 00:27:46.767
Format: MPEG-4
Video #0: 108 Мбайт (70%) AVC 960x540 (16:9) 29,970 кадров/сек 542 Кбит/сек
Audio #0: 44,0 Мбайт (29%) AAC LC 44,1 КГц 2 канала 221 Кбит/сек
File: E03b - Prime Generator Sequence.m4v
Size: 117 Мбайт (122504993 bytes)
Duration: 00:24:17.458
Format: MPEG-4
Video #0: 73,9 Мбайт (63%) AVC 960x540 (16:9) 29,970 кадров/сек 425 Кбит/сек
Audio #0: 40,8 Мбайт (35%) AAC LC 44,1 КГц 2 канала 235 Кбит/сек
File: E03c - Video Store Sequence.m4v
Size: 324 Мбайт (340235609 bytes)
Duration: 01:08:12.793
Format: MPEG-4
Video #0: 209 Мбайт (64%) AVC 960x540 (16:9) 29,970 кадров/сек 428 Кбит/сек
Audio #0: 110 Мбайт (34%) AAC LC 44,1 КГц 2 канала 225 Кбит/сек
File: E04 - Function Structure.mp4
Size: 1,64 Гбайт (1756722011 bytes)
Duration: 01:34:39.079
Format: MPEG-4
Video #0: 1,46 Гбайт (90%) AVC 1920x1080 (16:9) 29,970 кадров/сек 2215 Кбит/сек
Audio #0: 173 Мбайт (10%) AAC LC 48,0 КГц 2 канала 256 Кбит/сек
File: E04a - Stack Kata Screencast.m4v
Size: 162 Мбайт (169952451 bytes)
Duration: 00:35:20.587
Format: MPEG-4
Video #0: 95,0 Мбайт (59%) AVC 960x540 (16:9) 29,970 кадров/сек 376 Кбит/сек
Audio #0: 63,9 Мбайт (39%) AAC LC 44,1 КГц 2 канала 253 Кбит/сек
File: E05 - Form.mp4
Size: 1,41 Гбайт (1512705842 bytes)
Duration: 01:15:23.557
Format: MPEG-4
Video #0: 1,27 Гбайт (90%) AVC 1920x1080 (16:9) 29,970 кадров/сек 2416 Кбит/сек
Audio #0: 138 Мбайт (10%) AAC LC 48,0 КГц 2 канала 256 Кбит/сек
File: E05a - Lychrel Numbers Screencast.m4v
Size: 310 Мбайт (325573804 bytes)
Duration: 00:40:46.613
Format: MPEG-4
Video #0: 280 Мбайт (90%) AVC 960x720 (16:9) 29,970 кадров/сек 961 Кбит/сек
Audio #0: 28,7 Мбайт (9%) AAC LC 44,1 КГц 2 канала 98,5 Кбит/сек
File: E06 - TDD Part 1.mp4
Size: 1,42 Гбайт (1529526931 bytes)
Duration: 01:01:46.974
Format: MPEG-4
Video #0: 1,31 Гбайт (92%) AVC 1920x1080 (16:9) 29,970 кадров/сек 3041 Кбит/сек
Audio #0: 113 Мбайт (8%) AAC LC 48,0 КГц 2 канала 256 Кбит/сек
File: E06 - TDD Part 2.mp4
Size: 1,38 Гбайт (1484783616 bytes)
Duration: 01:15:07.975
Format: MPEG-4
Video #0: 1,44 Гбайт AVC 1920x1080 (16:9) 29,970 кадров/сек 2753 Кбит/сек
Audio #0: 138 Мбайт (10%) AAC LC 48,0 КГц 2 канала 256 Кбит/сек
File: E07 - Architecture, Use Cases, and High Level Design.mp4
Size: 1,56 Гбайт (1670435181 bytes)
Duration: 01:21:54.815
Format: MPEG-4
Video #0: 1,41 Гбайт (90%) AVC 1280x720 (16:9) 29,970 кадров/сек 2459 Кбит/сек
Audio #0: 150 Мбайт (9%) AAC LC 48,0 КГц 2 канала 256 Кбит/сек
File: E08 - Foundations of the SOLID principles.mp4
Size: 1,08 Гбайт (1164463633 bytes)
Duration: 00:53:36.817
Format: MPEG-4
Video #0: 1011 Мбайт (91%) AVC 1280x720 (16:9) 29,970 кадров/сек 2636 Кбит/сек
Audio #0: 98,2 Мбайт (9%) AAC LC 48,0 КГц 2 канала 256 Кбит/сек
File: E09 - The Single Responsibility Principle.mp4
Size: 1,65 Гбайт (1775874916 bytes)
Duration: 01:09:19.693
Format: MPEG-4
Video #0: 1,53 Гбайт (92%) AVC 1920x1080 (16:9) 29,970 кадров/сек 3156 Кбит/сек
Audio #0: 127 Мбайт (7%) AAC LC 48,0 КГц 2 канала 256 Кбит/сек
File: E10 - The Open-Closed Principle.mp4
Size: 1,55 Гбайт (1668356538 bytes)
Duration: 01:02:17.137
Format: MPEG-4
Video #0: 1,44 Гбайт (93%) AVC 1920x1080 (16:9) 29,970 кадров/сек 3312 Кбит/сек
Audio #0: 114 Мбайт (7%) AAC LC 48,0 КГц 2 канала 256 Кбит/сек
File: E11 - The Liskov Substitution Principle Part 1.mp4
Size: 1,58 Гбайт (1695191772 bytes)
Duration: 00:54:26.466
Format: MPEG-4
Video #0: 1,48 Гбайт (94%) AVC 1920x1080 (16:9) 29,970 кадров/сек 3892 Кбит/сек
Audio #0: 99,7 Мбайт (6%) AAC LC 48,0 КГц 2 канала 256 Кбит/сек
File: E11 - The Liskov Substitution Principle Part 2.mp4
Size: 1011 Мбайт (1060096797 bytes)
Duration: 00:31:26.186
Format: MPEG-4
Video #0: 953 Мбайт (94%) AVC 1920x1080 (16:9) 29,970 кадров/сек 4237 Кбит/сек
Audio #0: 57,6 Мбайт (6%) AAC LC 48,0 КГц 2 канала 256 Кбит/сек
File: E12 - The Interface Segregation Principle.mpg
Size: 1,64 Гбайт (1759935351 bytes)
Duration: 01:04:48.055
Format: MPEG-4
Video #0: 1,52 Гбайт (93%) AVC 1920x1080 (16:9) 29,970 кадров/сек 3361 Кбит/сек
Audio #0: 119 Мбайт (7%) AAC LC 48,0 КГц 2 канала 256 Кбит/сек
File: E13 - The Dependency Inversion Principle.mpg
Size: 1,68 Гбайт (1804030700 bytes)
Duration: 00:57:29.850
Format: MPEG-4
Video #0: 1,58 Гбайт (94%) AVC 1920x1080 (16:9) 29,970 кадров/сек 3924 Кбит/сек
Audio #0: 105 Мбайт (6%) AAC LC 48,0 КГц 2 канала 256 Кбит/сек
File: E14 - Solid Case Study.mp4
Size: 1,73 Гбайт (1854254483 bytes)
Duration: 00:43:15.062
Format: MPEG-4
Video #0: 1,65 Гбайт (95%) AVC 1920x1080 (16:9) 29,970 кадров/сек 5457 Кбит/сек
Audio #0: 79,2 Мбайт (4%) AAC LC 48,0 КГц 2 канала 256 Кбит/сек
File: E15 - SOLID Components.mp4
Size: 1,25 Гбайт (1338747173 bytes)
Duration: 00:57:44.600
Format: MPEG-4
Video #0: 1,14 Гбайт (92%) AVC 1280x720 (16:9) 60,000 кадров/сек 2830 Кбит/сек
Audio #0: 106 Мбайт (8%) AAC LC 48,0 КГц 2 канала 256 Кбит/сек
File: E16 - Component Cohesion.mov
Size: 1,43 Гбайт (1537089337 bytes)
Duration: 00:54:36.710
Format: MPEG-4
Video #0: 1,33 Гбайт (93%) AVC 1920x1080 (16:9) 29,970 кадров/сек 3493 Кбит/сек
Audio #0: 100,0 Мбайт (7%) AAC LC 48,0 КГц 2 канала 256 Кбит/сек
File: E17 - Component Coupling.mp4
Size: 1,38 Гбайт (1480149032 bytes)
Duration: 01:01:09.069
Format: MPEG-4
Video #0: 1,27 Гбайт (92%) AVC 1920x1080 (16:9) 29,970 кадров/сек 2968 Кбит/сек
Audio #0: 112 Мбайт (8%) AAC LC 48,0 КГц 2 канала 256 Кбит/сек
File: E18 - Component Case Study.mp4
Size: 1,37 Гбайт (1467310655 bytes)
Duration: 00:57:19.306
Format: MPEG-4
Video #0: 1,26 Гбайт (92%) AVC 1920x1080 (16:9) 29,970 кадров/сек 3153 Кбит/сек
Audio #0: 105 Мбайт (8%) AAC LC 48,0 КГц 2 канала 256 Кбит/сек
File: E19 - Advanced TDD - Part 1.mp4
Size: 989 Мбайт (1037361850 bytes)
Duration: 01:01:21.582
Format: MPEG-4
Video #0: 875 Мбайт (88%) AVC 1920x1080 (16:9) 29,970 кадров/сек 1994 Кбит/сек
Audio #0: 112 Мбайт (11%) AAC LC 48,0 КГц 2 канала 256 Кбит/сек
File: E19 - Advanced TDD - Part 2.mp4
Size: 819 Мбайт (859224259 bytes)
Duration: 00:54:43.550
Format: MPEG-4
Video #0: 718 Мбайт (88%) AVC 1920x1080 (16:9) 29,970 кадров/сек 1834 Кбит/сек
Audio #0: 100 Мбайт (12%) AAC LC 48,0 КГц 2 канала 256 Кбит/сек
File: E20 - Clean Tests.mp4
Size: 1,68 Гбайт (1807728057 bytes)
Duration: 01:24:12.619
Format: MPEG-4
Video #0: 1,53 Гбайт (91%) AVC 1920x1080 (16:9) 29,970 кадров/сек 2602 Кбит/сек
Audio #0: 154 Мбайт (9%) AAC LC 48,0 КГц 2 канала 256 Кбит/сек
File: E21 - Test Design.mp4
Size: 1,35 Гбайт (1452918332 bytes)
Duration: 00:56:31.725
Format: MPEG-4
Video #0: 1,25 Гбайт (92%) AVC 1920x1080 (16:9) 29,970 кадров/сек 3167 Кбит/сек
Audio #0: 104 Мбайт (7%) AAC LC 48,0 КГц 2 канала 256 Кбит/сек
File: E22 - Test Process.mp4
Size: 1,77 Гбайт (1904667273 bytes)
Duration: 01:22:50.637
Format: MPEG-4
Video #0: 1,62 Гбайт (92%) AVC 1920x1080 (16:9) 29,970 кадров/сек 2806 Кбит/сек
Audio #0: 152 Мбайт (8%) AAC LC 48,0 КГц 2 канала 256 Кбит/сек
File: E23 - Mocking - Part 1.mp4
Size: 1,05 Гбайт (1129132762 bytes)
Duration: 01:02:23.076
Format: MPEG-4
Video #0: 961 Мбайт (89%) AVC 1920x1080 (16:9) 29,970 кадров/сек 2154 Кбит/сек
Audio #0: 114 Мбайт (11%) AAC LC 48,0 КГц 2 канала 256 Кбит/сек
File: E23 - Mocking - Part 2.mp4
Size: 727 Мбайт (762689928 bytes)
Duration: 00:44:56.063
Format: MPEG-4
Video #0: 684 Мбайт (94%) AVC 1280x720 (16:9) 29,970 кадров/сек 2048 Кбит/сек
Audio #0: 40,9 Мбайт (6%) AAC LC 44,1 КГц 2 канала 128 Кбит/сек
File: E24 - Transformation Priority Premise - Part 1.mp4
Size: 813 Мбайт (852082686 bytes)
Duration: 00:51:14.408
Format: MPEG-4
Video #0: 763 Мбайт (94%) AVC 1280x720 (16:9) 29,970 кадров/сек 2048 Кбит/сек
Audio #0: 46,8 Мбайт (6%) AAC LC 44,1 КГц 2 канала 128 Кбит/сек
File: E24 - Transformation Priority Premise - Part 2.mp4
Size: 838 Мбайт (879170075 bytes)
Duration: 00:51:36.097
Format: MPEG-4
Video #0: 789 Мбайт (94%) AVC 1280x720 (16:9) 29,970 кадров/сек 2048 Кбит/сек
Audio #0: 47,2 Мбайт (6%) AAC LC 44,1 КГц 2 канала 128 Кбит/сек
File: E25 - Design Patterns.mp4
Size: 870 Мбайт (912289287 bytes)
Duration: 00:55:55.222
Format: MPEG-4
Video #0: 816 Мбайт (94%) AVC 1280x720 (16:9) 29,970 кадров/сек 2048 Кбит/сек
Audio #0: 51,1 Мбайт (6%) AAC LC 44,1 КГц 2 канала 128 Кбит/сек
File: E26 - Factories.mp4
Size: 1,00 Гбайт (1074445740 bytes)
Duration: 01:05:13.515
Format: MPEG-4
Video #0: 962 Мбайт (94%) AVC 1280x720 (16:9) 29,970 кадров/сек 2048 Кбит/сек
Audio #0: 59,7 Мбайт (6%) AAC LC 44,1 КГц 2 канала 128 Кбит/сек
File: E27 - Strategy & Template Method Patterns.mp4
Size: 788 Мбайт (826409605 bytes)
Duration: 00:50:11.420
Format: MPEG-4
Video #0: 740 Мбайт (94%) AVC 1280x720 (16:9) 29,970 кадров/сек 2048 Кбит/сек
Audio #0: 45,9 Мбайт (6%) AAC LC 44,1 КГц 2 канала 128 Кбит/сек
File: E28 - Finite State Machines and The State Pattern.mp4
Size: 900 Мбайт (943583078 bytes)
Duration: 01:12:03.440
Format: MPEG-4
Video #0: 830 Мбайт (92%) AVC 1280x720 (16:9) 29,970 кадров/сек 1600 Кбит/сек
Audio #0: 65,9 Мбайт (7%) AAC LC 44,1 КГц 2 канала 128 Кбит/сек
File: E29 - SMC Parser.mp4
Size: 960 Мбайт (1006982768 bytes)
Duration: 01:16:29.842
Format: MPEG-4
Video #0: 887 Мбайт (92%) AVC 1280x720 (16:9) 29,970 кадров/сек 1600 Кбит/сек
Audio #0: 70,0 Мбайт (7%) AAC LC 44,1 КГц 2 канала 128 Кбит/сек
File: E30 - SMC Generator.mp4
Size: 1,15 Гбайт (1233547717 bytes)
Duration: 01:34:03.703
Format: MPEG-4
Video #0: 1,06 Гбайт (92%) AVC 1280x720 (16:9) 59,940 кадров/сек 1600 Кбит/сек
Audio #0: 85,7 Мбайт (7%) AAC LC 44,1 КГц 2 канала 127 Кбит/сек
File: E01 - Clean Code.mp4
Size: 221 Мбайт (232235688 bytes)
Duration: 00:23:11.258
Format: MPEG-4
Video #0: 178 Мбайт (81%) AVC 960x540 (16:9) 29,970 кадров/сек 1076 Кбит/сек
Audio #0: 42,5 Мбайт (19%) AAC LC 44,1 КГц 2 канала 256 Кбит/сек
File: E02 - Names.mp4
Size: 365 Мбайт (382291909 bytes)
Duration: 00:43:51.398
Format: MPEG-4
Video #0: 283 Мбайт (78%) AVC 960x540 (16:9) 29,970 кадров/сек 903 Кбит/сек
Audio #0: 80,3 Мбайт (22%) AAC LC 44,1 КГц 2 канала 256 Кбит/сек
File: E03 - Functions.mp4
Size: 1,75 Гбайт (1879477486 bytes)
Duration: 00:59:41.114
Format: MPEG-4
Video #0: 1,64 Гбайт (94%) AVC 1920x1080 (16:9) 29,970 кадров/сек 3939 Кбит/сек
Audio #0: 109 Мбайт (6%) AAC LC 48,0 КГц 2 канала 256 Кбит/сек
File: E03a - Testable Html Sequence.m4v
Size: 154 Мбайт (161724779 bytes)
Duration: 00:27:46.767
Format: MPEG-4
Video #0: 108 Мбайт (70%) AVC 960x540 (16:9) 29,970 кадров/сек 542 Кбит/сек
Audio #0: 44,0 Мбайт (29%) AAC LC 44,1 КГц 2 канала 221 Кбит/сек
File: E03b - Prime Generator Sequence.m4v
Size: 117 Мбайт (122504993 bytes)
Duration: 00:24:17.458
Format: MPEG-4
Video #0: 73,9 Мбайт (63%) AVC 960x540 (16:9) 29,970 кадров/сек 425 Кбит/сек
Audio #0: 40,8 Мбайт (35%) AAC LC 44,1 КГц 2 канала 235 Кбит/сек
File: E03c - Video Store Sequence.m4v
Size: 324 Мбайт (340235609 bytes)
Duration: 01:08:12.793
Format: MPEG-4
Video #0: 209 Мбайт (64%) AVC 960x540 (16:9) 29,970 кадров/сек 428 Кбит/сек
Audio #0: 110 Мбайт (34%) AAC LC 44,1 КГц 2 канала 225 Кбит/сек
File: E04 - Function Structure.mp4
Size: 1,64 Гбайт (1756722011 bytes)
Duration: 01:34:39.079
Format: MPEG-4
Video #0: 1,46 Гбайт (90%) AVC 1920x1080 (16:9) 29,970 кадров/сек 2215 Кбит/сек
Audio #0: 173 Мбайт (10%) AAC LC 48,0 КГц 2 канала 256 Кбит/сек
File: E04a - Stack Kata Screencast.m4v
Size: 162 Мбайт (169952451 bytes)
Duration: 00:35:20.587
Format: MPEG-4
Video #0: 95,0 Мбайт (59%) AVC 960x540 (16:9) 29,970 кадров/сек 376 Кбит/сек
Audio #0: 63,9 Мбайт (39%) AAC LC 44,1 КГц 2 канала 253 Кбит/сек
File: E05 - Form.mp4
Size: 1,41 Гбайт (1512705842 bytes)
Duration: 01:15:23.557
Format: MPEG-4
Video #0: 1,27 Гбайт (90%) AVC 1920x1080 (16:9) 29,970 кадров/сек 2416 Кбит/сек
Audio #0: 138 Мбайт (10%) AAC LC 48,0 КГц 2 канала 256 Кбит/сек
File: E05a - Lychrel Numbers Screencast.m4v
Size: 310 Мбайт (325573804 bytes)
Duration: 00:40:46.613
Format: MPEG-4
Video #0: 280 Мбайт (90%) AVC 960x720 (16:9) 29,970 кадров/сек 961 Кбит/сек
Audio #0: 28,7 Мбайт (9%) AAC LC 44,1 КГц 2 канала 98,5 Кбит/сек
File: E06 - TDD Part 1.mp4
Size: 1,42 Гбайт (1529526931 bytes)
Duration: 01:01:46.974
Format: MPEG-4
Video #0: 1,31 Гбайт (92%) AVC 1920x1080 (16:9) 29,970 кадров/сек 3041 Кбит/сек
Audio #0: 113 Мбайт (8%) AAC LC 48,0 КГц 2 канала 256 Кбит/сек
File: E06 - TDD Part 2.mp4
Size: 1,38 Гбайт (1484783616 bytes)
Duration: 01:15:07.975
Format: MPEG-4
Video #0: 1,44 Гбайт AVC 1920x1080 (16:9) 29,970 кадров/сек 2753 Кбит/сек
Audio #0: 138 Мбайт (10%) AAC LC 48,0 КГц 2 канала 256 Кбит/сек
File: E07 - Architecture, Use Cases, and High Level Design.mp4
Size: 1,56 Гбайт (1670435181 bytes)
Duration: 01:21:54.815
Format: MPEG-4
Video #0: 1,41 Гбайт (90%) AVC 1280x720 (16:9) 29,970 кадров/сек 2459 Кбит/сек
Audio #0: 150 Мбайт (9%) AAC LC 48,0 КГц 2 канала 256 Кбит/сек
File: E08 - Foundations of the SOLID principles.mp4
Size: 1,08 Гбайт (1164463633 bytes)
Duration: 00:53:36.817
Format: MPEG-4
Video #0: 1011 Мбайт (91%) AVC 1280x720 (16:9) 29,970 кадров/сек 2636 Кбит/сек
Audio #0: 98,2 Мбайт (9%) AAC LC 48,0 КГц 2 канала 256 Кбит/сек
File: E09 - The Single Responsibility Principle.mp4
Size: 1,65 Гбайт (1775874916 bytes)
Duration: 01:09:19.693
Format: MPEG-4
Video #0: 1,53 Гбайт (92%) AVC 1920x1080 (16:9) 29,970 кадров/сек 3156 Кбит/сек
Audio #0: 127 Мбайт (7%) AAC LC 48,0 КГц 2 канала 256 Кбит/сек
File: E10 - The Open-Closed Principle.mp4
Size: 1,55 Гбайт (1668356538 bytes)
Duration: 01:02:17.137
Format: MPEG-4
Video #0: 1,44 Гбайт (93%) AVC 1920x1080 (16:9) 29,970 кадров/сек 3312 Кбит/сек
Audio #0: 114 Мбайт (7%) AAC LC 48,0 КГц 2 канала 256 Кбит/сек
File: E11 - The Liskov Substitution Principle Part 1.mp4
Size: 1,58 Гбайт (1695191772 bytes)
Duration: 00:54:26.466
Format: MPEG-4
Video #0: 1,48 Гбайт (94%) AVC 1920x1080 (16:9) 29,970 кадров/сек 3892 Кбит/сек
Audio #0: 99,7 Мбайт (6%) AAC LC 48,0 КГц 2 канала 256 Кбит/сек
File: E11 - The Liskov Substitution Principle Part 2.mp4
Size: 1011 Мбайт (1060096797 bytes)
Duration: 00:31:26.186
Format: MPEG-4
Video #0: 953 Мбайт (94%) AVC 1920x1080 (16:9) 29,970 кадров/сек 4237 Кбит/сек
Audio #0: 57,6 Мбайт (6%) AAC LC 48,0 КГц 2 канала 256 Кбит/сек
File: E12 - The Interface Segregation Principle.mpg
Size: 1,64 Гбайт (1759935351 bytes)
Duration: 01:04:48.055
Format: MPEG-4
Video #0: 1,52 Гбайт (93%) AVC 1920x1080 (16:9) 29,970 кадров/сек 3361 Кбит/сек
Audio #0: 119 Мбайт (7%) AAC LC 48,0 КГц 2 канала 256 Кбит/сек
File: E13 - The Dependency Inversion Principle.mpg
Size: 1,68 Гбайт (1804030700 bytes)
Duration: 00:57:29.850
Format: MPEG-4
Video #0: 1,58 Гбайт (94%) AVC 1920x1080 (16:9) 29,970 кадров/сек 3924 Кбит/сек
Audio #0: 105 Мбайт (6%) AAC LC 48,0 КГц 2 канала 256 Кбит/сек
File: E14 - Solid Case Study.mp4
Size: 1,73 Гбайт (1854254483 bytes)
Duration: 00:43:15.062
Format: MPEG-4
Video #0: 1,65 Гбайт (95%) AVC 1920x1080 (16:9) 29,970 кадров/сек 5457 Кбит/сек
Audio #0: 79,2 Мбайт (4%) AAC LC 48,0 КГц 2 канала 256 Кбит/сек
File: E15 - SOLID Components.mp4
Size: 1,25 Гбайт (1338747173 bytes)
Duration: 00:57:44.600
Format: MPEG-4
Video #0: 1,14 Гбайт (92%) AVC 1280x720 (16:9) 60,000 кадров/сек 2830 Кбит/сек
Audio #0: 106 Мбайт (8%) AAC LC 48,0 КГц 2 канала 256 Кбит/сек
File: E16 - Component Cohesion.mov
Size: 1,43 Гбайт (1537089337 bytes)
Duration: 00:54:36.710
Format: MPEG-4
Video #0: 1,33 Гбайт (93%) AVC 1920x1080 (16:9) 29,970 кадров/сек 3493 Кбит/сек
Audio #0: 100,0 Мбайт (7%) AAC LC 48,0 КГц 2 канала 256 Кбит/сек
File: E17 - Component Coupling.mp4
Size: 1,38 Гбайт (1480149032 bytes)
Duration: 01:01:09.069
Format: MPEG-4
Video #0: 1,27 Гбайт (92%) AVC 1920x1080 (16:9) 29,970 кадров/сек 2968 Кбит/сек
Audio #0: 112 Мбайт (8%) AAC LC 48,0 КГц 2 канала 256 Кбит/сек
File: E18 - Component Case Study.mp4
Size: 1,37 Гбайт (1467310655 bytes)
Duration: 00:57:19.306
Format: MPEG-4
Video #0: 1,26 Гбайт (92%) AVC 1920x1080 (16:9) 29,970 кадров/сек 3153 Кбит/сек
Audio #0: 105 Мбайт (8%) AAC LC 48,0 КГц 2 канала 256 Кбит/сек
File: E19 - Advanced TDD - Part 1.mp4
Size: 989 Мбайт (1037361850 bytes)
Duration: 01:01:21.582
Format: MPEG-4
Video #0: 875 Мбайт (88%) AVC 1920x1080 (16:9) 29,970 кадров/сек 1994 Кбит/сек
Audio #0: 112 Мбайт (11%) AAC LC 48,0 КГц 2 канала 256 Кбит/сек
File: E19 - Advanced TDD - Part 2.mp4
Size: 819 Мбайт (859224259 bytes)
Duration: 00:54:43.550
Format: MPEG-4
Video #0: 718 Мбайт (88%) AVC 1920x1080 (16:9) 29,970 кадров/сек 1834 Кбит/сек
Audio #0: 100 Мбайт (12%) AAC LC 48,0 КГц 2 канала 256 Кбит/сек
File: E20 - Clean Tests.mp4
Size: 1,68 Гбайт (1807728057 bytes)
Duration: 01:24:12.619
Format: MPEG-4
Video #0: 1,53 Гбайт (91%) AVC 1920x1080 (16:9) 29,970 кадров/сек 2602 Кбит/сек
Audio #0: 154 Мбайт (9%) AAC LC 48,0 КГц 2 канала 256 Кбит/сек
File: E21 - Test Design.mp4
Size: 1,35 Гбайт (1452918332 bytes)
Duration: 00:56:31.725
Format: MPEG-4
Video #0: 1,25 Гбайт (92%) AVC 1920x1080 (16:9) 29,970 кадров/сек 3167 Кбит/сек
Audio #0: 104 Мбайт (7%) AAC LC 48,0 КГц 2 канала 256 Кбит/сек
File: E22 - Test Process.mp4
Size: 1,77 Гбайт (1904667273 bytes)
Duration: 01:22:50.637
Format: MPEG-4
Video #0: 1,62 Гбайт (92%) AVC 1920x1080 (16:9) 29,970 кадров/сек 2806 Кбит/сек
Audio #0: 152 Мбайт (8%) AAC LC 48,0 КГц 2 канала 256 Кбит/сек
File: E23 - Mocking - Part 1.mp4
Size: 1,05 Гбайт (1129132762 bytes)
Duration: 01:02:23.076
Format: MPEG-4
Video #0: 961 Мбайт (89%) AVC 1920x1080 (16:9) 29,970 кадров/сек 2154 Кбит/сек
Audio #0: 114 Мбайт (11%) AAC LC 48,0 КГц 2 канала 256 Кбит/сек
File: E23 - Mocking - Part 2.mp4
Size: 727 Мбайт (762689928 bytes)
Duration: 00:44:56.063
Format: MPEG-4
Video #0: 684 Мбайт (94%) AVC 1280x720 (16:9) 29,970 кадров/сек 2048 Кбит/сек
Audio #0: 40,9 Мбайт (6%) AAC LC 44,1 КГц 2 канала 128 Кбит/сек
File: E24 - Transformation Priority Premise - Part 1.mp4
Size: 813 Мбайт (852082686 bytes)
Duration: 00:51:14.408
Format: MPEG-4
Video #0: 763 Мбайт (94%) AVC 1280x720 (16:9) 29,970 кадров/сек 2048 Кбит/сек
Audio #0: 46,8 Мбайт (6%) AAC LC 44,1 КГц 2 канала 128 Кбит/сек
File: E24 - Transformation Priority Premise - Part 2.mp4
Size: 838 Мбайт (879170075 bytes)
Duration: 00:51:36.097
Format: MPEG-4
Video #0: 789 Мбайт (94%) AVC 1280x720 (16:9) 29,970 кадров/сек 2048 Кбит/сек
Audio #0: 47,2 Мбайт (6%) AAC LC 44,1 КГц 2 канала 128 Кбит/сек
File: E25 - Design Patterns.mp4
Size: 870 Мбайт (912289287 bytes)
Duration: 00:55:55.222
Format: MPEG-4
Video #0: 816 Мбайт (94%) AVC 1280x720 (16:9) 29,970 кадров/сек 2048 Кбит/сек
Audio #0: 51,1 Мбайт (6%) AAC LC 44,1 КГц 2 канала 128 Кбит/сек
File: E26 - Factories.mp4
Size: 1,00 Гбайт (1074445740 bytes)
Duration: 01:05:13.515
Format: MPEG-4
Video #0: 962 Мбайт (94%) AVC 1280x720 (16:9) 29,970 кадров/сек 2048 Кбит/сек
Audio #0: 59,7 Мбайт (6%) AAC LC 44,1 КГц 2 канала 128 Кбит/сек
File: E27 - Strategy & Template Method Patterns.mp4
Size: 788 Мбайт (826409605 bytes)
Duration: 00:50:11.420
Format: MPEG-4
Video #0: 740 Мбайт (94%) AVC 1280x720 (16:9) 29,970 кадров/сек 2048 Кбит/сек
Audio #0: 45,9 Мбайт (6%) AAC LC 44,1 КГц 2 канала 128 Кбит/сек
File: E28 - Finite State Machines and The State Pattern.mp4
Size: 900 Мбайт (943583078 bytes)
Duration: 01:12:03.440
Format: MPEG-4
Video #0: 830 Мбайт (92%) AVC 1280x720 (16:9) 29,970 кадров/сек 1600 Кбит/сек
Audio #0: 65,9 Мбайт (7%) AAC LC 44,1 КГц 2 канала 128 Кбит/сек
File: E29 - SMC Parser.mp4
Size: 960 Мбайт (1006982768 bytes)
Duration: 01:16:29.842
Format: MPEG-4
Video #0: 887 Мбайт (92%) AVC 1280x720 (16:9) 29,970 кадров/сек 1600 Кбит/сек
Audio #0: 70,0 Мбайт (7%) AAC LC 44,1 КГц 2 канала 128 Кбит/сек
File: E30 - SMC Generator.mp4
Size: 1,15 Гбайт (1233547717 bytes)
Duration: 01:34:03.703
Format: MPEG-4
Video #0: 1,06 Гбайт (92%) AVC 1280x720 (16:9) 59,940 кадров/сек 1600 Кбит/сек
Audio #0: 85,7 Мбайт (7%) AAC LC 44,1 КГц 2 канала 127 Кбит/сек
General
Complete name : 31\CleanCode-E31-1080p.mp4
Format : MPEG-4
Format profile : Base Media / Version 2
Codec ID : mp42 (mp42/mp41)
File size : 1.59 GiB
Duration : 1h 4mn
Overall bit rate : 3 514 Kbps
Encoded date : UTC 2015-03-21 19:00:24
Tagged date : UTC 2015-03-21 19:01:24
Video
ID : 1
Format : AVC
Format/Info : Advanced Video Codec
Format profile : [email protected]
Format settings, CABAC : No
Format settings, ReFrames : 2 frames
Format settings, GOP : M=1, N=120
Codec ID : avc1
Codec ID/Info : Advanced Video Coding
Duration : 1h 4mn
Bit rate : 3 253 Kbps
Width : 1 920 pixels
Height : 1 080 pixels
Display aspect ratio : 16:9
Frame rate mode : Constant
Frame rate : 59.940 (59940/1000) fps
Color space : YUV
Chroma subsampling : 4:2:0
Bit depth : 8 bits
Scan type : Progressive
Bits/(Pixel*Frame) : 0.026
Stream size : 1.48 GiB (93%)
Language : English
Encoded date : UTC 2015-03-21 19:00:20
Tagged date : UTC 2015-03-21 19:01:24
Color range : Limited
Color primaries : BT.709
Transfer characteristics : BT.709
Matrix coefficients : BT.709
Audio
ID : 2
Format : AAC
Format/Info : Advanced Audio Codec
Format profile : LC
Codec ID : 40
Duration : 1h 4mn
Bit rate mode : Constant
Bit rate : 256 Kbps
Channel(s) : 2 channels
Channel positions : Front: L R
Sampling rate : 48.0 KHz
Frame rate : 46.875 fps (1024 spf)
Compression mode : Lossy
Stream size : 119 MiB (7%)
Language : English
Encoded date : UTC 2015-03-21 19:00:20
Tagged date : UTC 2015-03-21 19:01:24
General
Complete name : C:\Users\Алексей\Documents\Загрузки\Clean Code (new clips)\32\CleanCode-E32-1080p.mp4
Format : MPEG-4
Format profile : Base Media / Version 2
Codec ID : mp42 (mp42/mp41)
File size : 1.81 GiB
Duration : 1h 8mn
Overall bit rate : 3 773 Kbps
Encoded date : UTC 2015-05-05 03:58:29
Tagged date : UTC 2015-05-05 03:59:34
Video
ID : 1
Format : AVC
Format/Info : Advanced Video Codec
Format profile : [email protected]
Format settings, CABAC : No
Format settings, ReFrames : 2 frames
Format settings, GOP : M=1, N=120
Codec ID : avc1
Codec ID/Info : Advanced Video Coding
Duration : 1h 8mn
Bit rate : 3 512 Kbps
Width : 1 920 pixels
Height : 1 080 pixels
Display aspect ratio : 16:9
Frame rate mode : Constant
Frame rate : 59.940 (59940/1000) fps
Color space : YUV
Chroma subsampling : 4:2:0
Bit depth : 8 bits
Scan type : Progressive
Bits/(Pixel*Frame) : 0.028
Stream size : 1.69 GiB (93%)
Language : English
Encoded date : UTC 2015-05-05 03:58:24
Tagged date : UTC 2015-05-05 03:59:34
Color range : Limited
Color primaries : BT.709
Transfer characteristics : BT.709
Matrix coefficients : BT.709
Audio
ID : 2
Format : AAC
Format/Info : Advanced Audio Codec
Format profile : LC
Codec ID : 40
Duration : 1h 8mn
Bit rate mode : Constant
Bit rate : 256 Kbps
Channel(s) : 2 channels
Channel positions : Front: L R
Sampling rate : 48.0 KHz
Frame rate : 46.875 fps (1024 spf)
Compression mode : Lossy
Stream size : 126 MiB (7%)
Language : English
Encoded date : UTC 2015-05-05 03:58:24
Tagged date : UTC 2015-05-05 03:59:34
General
Complete name : C:\Users\Алексей\Documents\Загрузки\Clean Code (new clips)\33\CleanCode-E33-1080p.mp4
Format : MPEG-4
Format profile : Base Media / Version 2
Codec ID : mp42 (mp42/mp41)
File size : 2.18 GiB
Duration : 1h 4mn
Overall bit rate : 4 803 Kbps
Encoded date : UTC 2015-06-17 23:01:06
Tagged date : UTC 2015-06-17 23:06:04
Video
ID : 1
Format : AVC
Format/Info : Advanced Video Codec
Format profile : [email protected]
Format settings, CABAC : No
Format settings, ReFrames : 2 frames
Format settings, GOP : M=1, N=120
Codec ID : avc1
Codec ID/Info : Advanced Video Coding
Duration : 1h 4mn
Bit rate : 4 542 Kbps
Width : 1 920 pixels
Height : 1 080 pixels
Display aspect ratio : 16:9
Frame rate mode : Constant
Frame rate : 59.940 (59940/1000) fps
Color space : YUV
Chroma subsampling : 4:2:0
Bit depth : 8 bits
Scan type : Progressive
Bits/(Pixel*Frame) : 0.037
Stream size : 2.06 GiB (95%)
Language : English
Encoded date : UTC 2015-06-17 23:01:02
Tagged date : UTC 2015-06-17 23:06:04
Color range : Limited
Color primaries : BT.709
Transfer characteristics : BT.709
Matrix coefficients : BT.709
Audio
ID : 2
Format : AAC
Format/Info : Advanced Audio Codec
Format profile : LC
Codec ID : 40
Duration : 1h 4mn
Bit rate mode : Constant
Bit rate : 256 Kbps
Channel(s) : 2 channels
Channel positions : Front: L R
Sampling rate : 48.0 KHz
Frame rate : 46.875 fps (1024 spf)
Compression mode : Lossy
Stream size : 119 MiB (5%)
Language : English
Encoded date : UTC 2015-06-17 23:01:02
Tagged date : UTC 2015-06-17 23:06:04
General
Complete name : C:\Users\Алексей\Documents\Загрузки\Clean Code (new clips)\34\CleanCode-E34-1080p.mp4
Format : MPEG-4
Format profile : Base Media / Version 2
Codec ID : mp42 (mp42/mp41)
File size : 2.31 GiB
Duration : 1h 21mn
Overall bit rate : 4 048 Kbps
Encoded date : UTC 2015-07-17 13:11:37
Tagged date : UTC 2015-07-17 13:12:57
Video
ID : 1
Format : AVC
Format/Info : Advanced Video Codec
Format profile : [email protected]
Format settings, CABAC : No
Format settings, ReFrames : 2 frames
Format settings, GOP : M=1, N=60
Codec ID : avc1
Codec ID/Info : Advanced Video Coding
Duration : 1h 21mn
Bit rate : 3 789 Kbps
Width : 1 920 pixels
Height : 1 080 pixels
Display aspect ratio : 16:9
Frame rate mode : Constant
Frame rate : 29.970 (29970/1000) fps
Color space : YUV
Chroma subsampling : 4:2:0
Bit depth : 8 bits
Scan type : Progressive
Bits/(Pixel*Frame) : 0.061
Stream size : 2.16 GiB (94%)
Language : English
Encoded date : UTC 2015-07-17 13:11:33
Tagged date : UTC 2015-07-17 13:12:57
Color range : Limited
Color primaries : BT.709
Transfer characteristics : BT.709
Matrix coefficients : BT.709
Audio
ID : 2
Format : AAC
Format/Info : Advanced Audio Codec
Format profile : LC
Codec ID : 40
Duration : 1h 21mn
Bit rate mode : Constant
Bit rate : 256 Kbps
Channel(s) : 2 channels
Channel positions : Front: L R
Sampling rate : 48.0 KHz
Frame rate : 46.875 fps (1024 spf)
Compression mode : Lossy
Stream size : 149 MiB (6%)
Language : English
Encoded date : UTC 2015-07-17 13:11:33
Tagged date : UTC 2015-07-17 13:12:57
General
Complete name : C:\Users\Алексей\Documents\Загрузки\Clean Code (new clips)\35\CleanCode-E35-1080p.mp4
Format : MPEG-4
Format profile : Base Media / Version 2
Codec ID : mp42 (mp42/mp41)
File size : 2.27 GiB
Duration : 1h 8mn
Overall bit rate : 4 740 Kbps
Encoded date : UTC 2015-09-01 04:30:08
Tagged date : UTC 2015-09-01 04:33:05
Video
ID : 1
Format : AVC
Format/Info : Advanced Video Codec
Format profile : [email protected]
Format settings, CABAC : No
Format settings, ReFrames : 2 frames
Format settings, GOP : M=1, N=60
Codec ID : avc1
Codec ID/Info : Advanced Video Coding
Duration : 1h 8mn
Bit rate : 4 480 Kbps
Width : 1 920 pixels
Height : 1 080 pixels
Display aspect ratio : 16:9
Frame rate mode : Constant
Frame rate : 29.970 (29970/1000) fps
Color space : YUV
Chroma subsampling : 4:2:0
Bit depth : 8 bits
Scan type : Progressive
Bits/(Pixel*Frame) : 0.072
Stream size : 2.15 GiB (95%)
Language : English
Encoded date : UTC 2015-09-01 04:30:05
Tagged date : UTC 2015-09-01 04:33:05
Color range : Limited
Color primaries : BT.709
Transfer characteristics : BT.709
Matrix coefficients : BT.709
Audio
ID : 2
Format : AAC
Format/Info : Advanced Audio Codec
Format profile : LC
Codec ID : 40
Duration : 1h 8mn
Bit rate mode : Constant
Bit rate : 256 Kbps
Channel(s) : 2 channels
Channel positions : Front: L R
Sampling rate : 48.0 KHz
Frame rate : 46.875 fps (1024 spf)
Compression mode : Lossy
Stream size : 126 MiB (5%)
Language : English
Encoded date : UTC 2015-09-01 04:30:05
Tagged date : UTC 2015-09-01 04:33:05
General
Complete name : C:\Users\Алексей\Documents\Загрузки\Clean Code (new clips)\36\CleanCode-E36-1080p.mp4
Format : MPEG-4
Format profile : Base Media / Version 2
Codec ID : mp42 (mp42/mp41)
File size : 1.80 GiB
Duration : 48mn 14s
Overall bit rate : 5 341 Kbps
Encoded date : UTC 2015-10-01 19:26:20
Tagged date : UTC 2015-10-01 19:27:25
Video
ID : 1
Format : AVC
Format/Info : Advanced Video Codec
Format profile : [email protected]
Format settings, CABAC : No
Format settings, ReFrames : 2 frames
Format settings, GOP : M=1, N=60
Codec ID : avc1
Codec ID/Info : Advanced Video Coding
Duration : 48mn 14s
Bit rate : 5 082 Kbps
Width : 1 920 pixels
Height : 1 080 pixels
Display aspect ratio : 16:9
Frame rate mode : Constant
Frame rate : 29.970 (29970/1000) fps
Color space : YUV
Chroma subsampling : 4:2:0
Bit depth : 8 bits
Scan type : Progressive
Bits/(Pixel*Frame) : 0.082
Stream size : 1.71 GiB (95%)
Language : English
Encoded date : UTC 2015-10-01 19:26:18
Tagged date : UTC 2015-10-01 19:27:25
Color range : Limited
Color primaries : BT.709
Transfer characteristics : BT.709
Matrix coefficients : BT.709
Audio
ID : 2
Format : AAC
Format/Info : Advanced Audio Codec
Format profile : LC
Codec ID : 40
Duration : 48mn 14s
Bit rate mode : Constant
Bit rate : 256 Kbps
Channel(s) : 2 channels
Channel positions : Front: L R
Sampling rate : 48.0 KHz
Frame rate : 46.875 fps (1024 spf)
Compression mode : Lossy
Stream size : 88.3 MiB (5%)
Language : English
Encoded date : UTC 2015-10-01 19:26:18
Tagged date : UTC 2015-10-01 19:27:25
Общее
Полное имя : F:\Clean Code\37\CleanCode-E37-1080p.mp4
Формат : MPEG-4
Профиль формата : Base Media / Version 2
Идентификатор кодека : mp42 (mp42/mp41)
Размер файла : 2,32 Гбайт
Продолжительность : 1 ч. 32 м.
Общий поток : 3609 Кбит/сек
Дата кодирования : UTC 2015-11-18 21:08:34
Дата пометки : UTC 2015-11-18 21:09:59
Видео
Идентификатор : 1
Формат : AVC
Формат/Информация : Advanced Video Codec
Профиль формата : [email protected]
Параметр CABAC формата : Нет
Параметр ReFrames формата : 2 кадра
Параметр GOP формата : M=1, N=60
Идентификатор кодека : avc1
Идентификатор кодека/Информация : Advanced Video Coding
Продолжительность : 1 ч. 32 м.
Битрейт : 3350 Кбит/сек
Ширина : 1920 пикселей
Высота : 1080 пикселей
Соотношение сторон : 16:9
Режим частоты кадров : Постоянный
Частота кадров : 29,970 (29970/1000) кадров/сек
Цветовое пространство : YUV
Субдискретизация насыщенности : 4:2:0
Битовая глубина : 8 бит
Тип развёртки : Прогрессивная
Бит/(Пиксели*Кадры) : 0.054
Размер потока : 2,16 Гбайт (93%)
Язык : English
Дата кодирования : UTC 2015-11-18 21:08:30
Дата пометки : UTC 2015-11-18 21:09:59
Цветовой диапазон : Limited
Основные цвета : BT.709
Характеристики трансфера : BT.709
Коэффициенты матрицы : BT.709
Аудио
Идентификатор : 2
Формат : AAC
Формат/Информация : Advanced Audio Codec
Профиль формата : LC
Идентификатор кодека : 40
Продолжительность : 1 ч. 32 м.
Вид битрейта : Постоянный
Битрейт : 256 Кбит/сек
Каналы : 2 канала
Расположение каналов : Front: L R
Частота : 48,0 КГц
Частота кадров : 46,875 кадров/сек (1024 spf)
Метод сжатия : С потерями
Размер потока : 169 Мбайт (7%)
Язык : English
Дата кодирования : UTC 2015-11-18 21:08:30
Дата пометки : UTC 2015-11-18 21:09:59
Общее
Полное имя : F:\Clean Code\38\CleanCode-E38-1080p.mp4
Формат : MPEG-4
Профиль формата : Base Media / Version 2
Идентификатор кодека : mp42 (mp42/mp41)
Размер файла : 2,58 Гбайт
Продолжительность : 45 м. 35 с.
Общий поток : 8098 Кбит/сек
Дата кодирования : UTC 2016-01-25 21:43:00
Дата пометки : UTC 2016-01-25 21:44:28
Видео
Идентификатор : 1
Формат : AVC
Формат/Информация : Advanced Video Codec
Профиль формата : [email protected]
Параметр CABAC формата : Нет
Параметр ReFrames формата : 2 кадра
Параметр GOP формата : M=1, N=120
Идентификатор кодека : avc1
Идентификатор кодека/Информация : Advanced Video Coding
Продолжительность : 45 м. 35 с.
Битрейт : 7837 Кбит/сек
Ширина : 1920 пикселей
Высота : 1080 пикселей
Соотношение сторон : 16:9
Режим частоты кадров : Постоянный
Частота кадров : 59,940 (59940/1000) кадров/сек
Цветовое пространство : YUV
Субдискретизация насыщенности : 4:2:0
Битовая глубина : 8 бит
Тип развёртки : Прогрессивная
Бит/(Пиксели*Кадры) : 0.063
Размер потока : 2,50 Гбайт (97%)
Язык : English
Дата кодирования : UTC 2016-01-25 21:42:58
Дата пометки : UTC 2016-01-25 21:44:28
Цветовой диапазон : Limited
Основные цвета : BT.709
Характеристики трансфера : BT.709
Коэффициенты матрицы : BT.709
Аудио
Идентификатор : 2
Формат : AAC
Формат/Информация : Advanced Audio Codec
Профиль формата : LC
Идентификатор кодека : 40
Продолжительность : 45 м. 35 с.
Вид битрейта : Постоянный
Битрейт : 256 Кбит/сек
Каналы : 2 канала
Расположение каналов : Front: L R
Частота : 48,0 КГц
Частота кадров : 46,875 кадров/сек (1024 spf)
Метод сжатия : С потерями
Размер потока : 83,5 Мбайт (3%)
Язык : English
Дата кодирования : UTC 2016-01-25 21:42:58
Дата пометки : UTC 2016-01-25 21:44:28
Общее
Полное имя : F:\Clean Code\39\CleanCode-E39-1080p.mp4
Формат : MPEG-4
Профиль формата : Base Media / Version 2
Идентификатор кодека : mp42 (mp42/mp41)
Размер файла : 1,60 Гбайт
Продолжительность : 47 м. 39 с.
Общий поток : 4796 Кбит/сек
Дата кодирования : UTC 2016-03-23 13:40:04
Дата пометки : UTC 2016-03-23 13:41:03
Видео
Идентификатор : 1
Формат : AVC
Формат/Информация : Advanced Video Codec
Профиль формата : [email protected]
Параметр CABAC формата : Нет
Параметр ReFrames формата : 2 кадра
Параметр GOP формата : M=1, N=120
Идентификатор кодека : avc1
Идентификатор кодека/Информация : Advanced Video Coding
Продолжительность : 47 м. 39 с.
Битрейт : 4535 Кбит/сек
Ширина : 1920 пикселей
Высота : 1080 пикселей
Соотношение сторон : 16:9
Режим частоты кадров : Постоянный
Частота кадров : 59,940 (59940/1000) кадров/сек
Цветовое пространство : YUV
Субдискретизация насыщенности : 4:2:0
Битовая глубина : 8 бит
Тип развёртки : Прогрессивная
Бит/(Пиксели*Кадры) : 0.036
Размер потока : 1,51 Гбайт (95%)
Язык : English
Дата кодирования : UTC 2016-03-23 13:40:02
Дата пометки : UTC 2016-03-23 13:41:03
Цветовой диапазон : Limited
Основные цвета : BT.709
Характеристики трансфера : BT.709
Коэффициенты матрицы : BT.709
Аудио
Идентификатор : 2
Формат : AAC
Формат/Информация : Advanced Audio Codec
Профиль формата : LC
Идентификатор кодека : 40
Продолжительность : 47 м. 39 с.
Вид битрейта : Постоянный
Битрейт : 256 Кбит/сек
Каналы : 2 канала
Расположение каналов : Front: L R
Частота : 48,0 КГц
Частота кадров : 46,875 кадров/сек (1024 spf)
Метод сжатия : С потерями
Размер потока : 87,3 Мбайт (5%)
Язык : English
Дата кодирования : UTC 2016-03-23 13:40:02
Дата пометки : UTC 2016-03-23 13:41:03
Общее
Полное имя : F:\Clean Code\40\CleanCode-E40-1080p.mp4
Формат : MPEG-4
Профиль формата : Base Media / Version 2
Идентификатор кодека : mp42 (mp42/mp41)
Размер файла : 1,52 Гбайт
Продолжительность : 1 ч. 42 м.
Общий поток : 2125 Кбит/сек
Дата кодирования : UTC 2016-04-26 01:36:57
Дата пометки : UTC 2016-04-26 01:38:18
IsTruncated : Yes
Видео
Идентификатор : 1
Формат : AVC
Формат/Информация : Advanced Video Codec
Профиль формата : [email protected]
Параметр CABAC формата : Нет
Параметр ReFrames формата : 2 кадра
Параметр GOP формата : M=1, N=120
Идентификатор кодека : avc1
Идентификатор кодека/Информация : Advanced Video Coding
Продолжительность : 1 ч. 42 м.
Битрейт : 2709 Кбит/сек
Ширина : 1920 пикселей
Высота : 1080 пикселей
Соотношение сторон : 16:9
Режим частоты кадров : Постоянный
Частота кадров : 59,940 (59940/1000) кадров/сек
Цветовое пространство : YUV
Субдискретизация насыщенности : 4:2:0
Битовая глубина : 8 бит
Тип развёртки : Прогрессивная
Бит/(Пиксели*Кадры) : 0.022
Размер потока : 1,94 Гбайт
Язык : English
Дата кодирования : UTC 2016-04-26 01:36:51
Дата пометки : UTC 2016-04-26 01:38:18
Цветовой диапазон : Limited
Основные цвета : BT.709
Характеристики трансфера : BT.709
Коэффициенты матрицы : BT.709
Аудио
Идентификатор : 2
Формат : AAC
Формат/Информация : Advanced Audio Codec
Профиль формата : LC
Идентификатор кодека : 40
Продолжительность : 1 ч. 42 м.
Вид битрейта : Постоянный
Битрейт : 256 Кбит/сек
Каналы : 2 канала
Расположение каналов : Front: L R
Частота : 48,0 КГц
Частота кадров : 46,875 кадров/сек (1024 spf)
Метод сжатия : С потерями
Размер потока : 188 Мбайт (12%)
Язык : English
Дата кодирования : UTC 2016-04-26 01:36:51
Дата пометки : UTC 2016-04-26 01:38:18
Общее
Полное имя : F:\Clean Code\41\CleanCode-E41-1080p.mp4
Формат : MPEG-4
Профиль формата : Base Media / Version 2
Идентификатор кодека : mp42 (mp42/mp41)
Размер файла : 1,87 Гбайт
Продолжительность : 57 м. 27 с.
Общий поток : 4669 Кбит/сек
Дата кодирования : UTC 2016-06-01 23:43:52
Дата пометки : UTC 2016-06-01 23:47:05
Видео
Идентификатор : 1
Формат : AVC
Формат/Информация : Advanced Video Codec
Профиль формата : [email protected]
Параметр CABAC формата : Нет
Параметр ReFrames формата : 2 кадра
Параметр GOP формата : M=1, N=120
Идентификатор кодека : avc1
Идентификатор кодека/Информация : Advanced Video Coding
Продолжительность : 57 м. 27 с.
Битрейт : 4408 Кбит/сек
Ширина : 1920 пикселей
Высота : 1080 пикселей
Соотношение сторон : 16:9
Режим частоты кадров : Постоянный
Частота кадров : 59,940 (59940/1000) кадров/сек
Цветовое пространство : YUV
Субдискретизация насыщенности : 4:2:0
Битовая глубина : 8 бит
Тип развёртки : Прогрессивная
Бит/(Пиксели*Кадры) : 0.035
Размер потока : 1,77 Гбайт (94%)
Язык : English
Дата кодирования : UTC 2016-06-01 23:43:49
Дата пометки : UTC 2016-06-01 23:47:05
Цветовой диапазон : Limited
Основные цвета : BT.709
Характеристики трансфера : BT.709
Коэффициенты матрицы : BT.709
Аудио
Идентификатор : 2
Формат : AAC
Формат/Информация : Advanced Audio Codec
Профиль формата : LC
Идентификатор кодека : 40
Продолжительность : 57 м. 27 с.
Вид битрейта : Постоянный
Битрейт : 256 Кбит/сек
Каналы : 2 канала
Расположение каналов : Front: L R
Частота : 48,0 КГц
Частота кадров : 46,875 кадров/сек (1024 spf)
Метод сжатия : С потерями
Размер потока : 105 Мбайт (5%)
Язык : English
Дата кодирования : UTC 2016-06-01 23:43:49
Дата пометки : UTC 2016-06-01 23:47:05
Общее
Полное имя : F:\Clean Code\42\Clean.Coders.42.1.Life, The Universe, and Everything.mp4
Формат : MPEG-4
Профиль формата : Base Media / Version 2
Идентификатор кодека : mp42 (isom/iso2/avc1/mp41)
Размер файла : 1,21 Гбайт
Продолжительность : 58 м. 1 с.
Режим общего битрейта : Переменный
Общий поток : 2991 Кбит/сек
Дата кодирования : UTC 2016-07-16 03:42:22
Дата пометки : UTC 2016-07-16 03:42:22
Программа кодирования : HandBrake 0.10.5 2016021100
Видео
Идентификатор : 1
Формат : AVC
Формат/Информация : Advanced Video Codec
Профиль формата : [email protected]
Параметр CABAC формата : Да
Параметр ReFrames формата : 4 кадра
Идентификатор кодека : avc1
Идентификатор кодека/Информация : Advanced Video Coding
Продолжительность : 58 м. 1 с.
Битрейт : 2833 Кбит/сек
Ширина : 1920 пикселей
Высота : 1080 пикселей
Соотношение сторон : 16:9
Режим частоты кадров : Переменный
Частота кадров : 59,940 кадров/сек
Минимальная частота кадров : 59,920 кадров/сек
Максимальная частота кадров : 59,960 кадров/сек
Цветовое пространство : YUV
Субдискретизация насыщенности : 4:2:0
Битовая глубина : 8 бит
Тип развёртки : Прогрессивная
Бит/(Пиксели*Кадры) : 0.023
Размер потока : 1,15 Гбайт (95%)
Библиотека кодирования : x264 core 142 r2479 dd79a61
Настройки программы : cabac=1 / ref=1 / deblock=1:0:0 / analyse=0x1:0x111 / me=hex / subme=2 / psy=1 / psy_rd=1.00:0.00 / mixed_ref=0 / me_range=16 / chroma_me=1 / trellis=0 / 8x8dct=0 / cqm=0 / deadzone=21,11 / fast_pskip=1 / chroma_qp_offset=0 / threads=36 / lookahead_threads=8 / sliced_threads=0 / nr=0 / decimate=1 / interlaced=0 / bluray_compat=0 / constrained_intra=0 / bframes=3 / b_pyramid=2 / b_adapt=1 / b_bias=0 / direct=1 / weightb=1 / open_gop=0 / weightp=1 / keyint=600 / keyint_min=60 / scenecut=40 / intra_refresh=0 / rc_lookahead=10 / rc=crf / mbtree=1 / crf=20.0 / qcomp=0.60 / qpmin=0 / qpmax=69 / qpstep=4 / vbv_maxrate=20000 / vbv_bufsize=25000 / crf_max=0.0 / nal_hrd=none / filler=0 / ip_ratio=1.40 / aq=1:1.00
Дата кодирования : UTC 2016-07-16 03:42:22
Дата пометки : UTC 2016-07-16 03:42:22
Цветовой диапазон : Limited
Основные цвета : BT.709
Характеристики трансфера : BT.709
Коэффициенты матрицы : BT.709
Аудио
Идентификатор : 2
Формат : AAC
Формат/Информация : Advanced Audio Codec
Профиль формата : LC
Идентификатор кодека : 40
Продолжительность : 58 м. 1 с.
Вид битрейта : Переменный
Битрейт : 144 Кбит/сек
Каналы : 2 канала
Расположение каналов : Front: L R
Частота : 48,0 КГц
Частота кадров : 46,875 кадров/сек (1024 spf)
Метод сжатия : С потерями
Размер потока : 59,3 Мбайт (5%)
Заголовок : Stereo / Stereo
Default : Да
AlternateGroup/String : 1
Дата кодирования : UTC 2016-07-16 03:42:22
Дата пометки : UTC 2016-07-16 03:42:22
Общее
Полное имя : F:\Clean Code\42\Clean.Coders.42.2.Life, The Universe, and Everything.mp4
Формат : MPEG-4
Профиль формата : Base Media / Version 2
Идентификатор кодека : mp42 (isom/iso2/avc1/mp41)
Размер файла : 1,79 Гбайт
Продолжительность : 46 м. 39 с.
Режим общего битрейта : Переменный
Общий поток : 5497 Кбит/сек
Дата кодирования : UTC 2016-07-17 05:41:24
Дата пометки : UTC 2016-07-17 05:41:24
Программа кодирования : HandBrake 0.10.5 2016021100
Видео
Идентификатор : 1
Формат : AVC
Формат/Информация : Advanced Video Codec
Профиль формата : [email protected]
Параметр CABAC формата : Да
Параметр ReFrames формата : 4 кадра
Идентификатор кодека : avc1
Идентификатор кодека/Информация : Advanced Video Coding
Продолжительность : 46 м. 39 с.
Битрейт : 5109 Кбит/сек
Ширина : 1920 пикселей
Высота : 1080 пикселей
Соотношение сторон : 16:9
Режим частоты кадров : Переменный
Частота кадров : 59,940 (60000/1001) кадров/сек
Минимальная частота кадров : 59,920 кадров/сек
Максимальная частота кадров : 59,960 кадров/сек
Цветовое пространство : YUV
Субдискретизация насыщенности : 4:2:0
Битовая глубина : 8 бит
Тип развёртки : Прогрессивная
Бит/(Пиксели*Кадры) : 0.041
Размер потока : 1,66 Гбайт (93%)
Библиотека кодирования : x264 core 142 r2479 dd79a61
Настройки программы : cabac=1 / ref=3 / deblock=1:0:0 / analyse=0x3:0x113 / me=hex / subme=7 / psy=1 / psy_rd=1.00:0.00 / mixed_ref=1 / me_range=16 / chroma_me=1 / trellis=1 / 8x8dct=1 / cqm=0 / deadzone=21,11 / fast_pskip=1 / chroma_qp_offset=-2 / threads=36 / lookahead_threads=6 / sliced_threads=0 / nr=0 / decimate=1 / interlaced=0 / bluray_compat=0 / constrained_intra=0 / bframes=3 / b_pyramid=2 / b_adapt=1 / b_bias=0 / direct=1 / weightb=1 / open_gop=0 / weightp=2 / keyint=600 / keyint_min=60 / scenecut=40 / intra_refresh=0 / rc_lookahead=40 / rc=crf / mbtree=1 / crf=20.0 / qcomp=0.60 / qpmin=0 / qpmax=69 / qpstep=4 / vbv_maxrate=62500 / vbv_bufsize=78125 / crf_max=0.0 / nal_hrd=none / filler=0 / ip_ratio=1.40 / aq=1:1.00
Дата кодирования : UTC 2016-07-17 05:41:24
Дата пометки : UTC 2016-07-17 05:41:24
Цветовой диапазон : Limited
Основные цвета : BT.709
Характеристики трансфера : BT.709
Коэффициенты матрицы : BT.709
Menus : 4
Аудио #1
Идентификатор : 2
Формат : AAC
Формат/Информация : Advanced Audio Codec
Профиль формата : LC
Идентификатор кодека : 40
Продолжительность : 46 м. 39 с.
Вид битрейта : Переменный
Битрейт : 148 Кбит/сек
Каналы : 2 канала
Расположение каналов : Front: L R
Частота : 48,0 КГц
Частота кадров : 46,875 кадров/сек (1024 spf)
Метод сжатия : С потерями
Размер потока : 49,4 Мбайт (3%)
Заголовок : Stereo / Stereo
Default : Да
AlternateGroup/String : 1
Дата кодирования : UTC 2016-07-17 05:41:24
Дата пометки : UTC 2016-07-17 05:41:24
Fallback From : 3
Menus : 4
Аудио #2
Идентификатор : 3
Формат : AC-3
Формат/Информация : Audio Coding 3
Параметр Endianness формата : Big
Идентификатор кодека : ac-3
Продолжительность : 46 м. 39 с.
Вид битрейта : Постоянный
Битрейт : 224 Кбит/сек
Каналы : 2 канала
Расположение каналов : Front: L R
Частота : 48,0 КГц
Частота кадров : 31,250 кадров/сек (1536 spf)
Битовая глубина : 16 бит
Метод сжатия : С потерями
Размер потока : 74,8 Мбайт (4%)
Заголовок : Stereo / Stereo
ServiceKind/String : Complete Main
Default : Inherited From: 2
AlternateGroup/String : 1
Дата кодирования : UTC 2016-07-17 05:41:24
Дата пометки : UTC 2016-07-17 05:41:24
Fallback To : 2
Меню
Идентификатор : 4
Идентификатор кодека : text
Продолжительность : 46 м. 39 с.
Язык : English
Дата кодирования : UTC 2016-07-17 05:41:24
Дата пометки : UTC 2016-07-17 05:41:24
Menu For : 1,2
00:00:00.000 : 5 - Mutation Testing
00:26:21.380 : 6 - Cleaning
00:33:17.229 : 7 - Semantic Stability
00:40:07.372 : 8 - Conclusion
Вид битрейта : VBR
Общее
Полное имя : F:\Clean Code\43\CleanCode-E43-1080p.mp4
Формат : MPEG-4
Профиль формата : Base Media / Version 2
Идентификатор кодека : mp42 (isom/iso2/avc1/mp41)
Размер файла : 2,00 Гбайт
Продолжительность : 1 ч. 7 м.
Режим общего битрейта : Переменный
Общий поток : 4211 Кбит/сек
Дата кодирования : UTC 2016-10-05 11:27:53
Дата пометки : UTC 2016-10-05 11:27:53
Программа кодирования : HandBrake 0.10.5 2016021100
Видео
Идентификатор : 1
Формат : AVC
Формат/Информация : Advanced Video Codec
Профиль формата : [email protected]
Параметр CABAC формата : Да
Параметр ReFrames формата : 4 кадра
Идентификатор кодека : avc1
Идентификатор кодека/Информация : Advanced Video Coding
Продолжительность : 1 ч. 7 м.
Битрейт : 4000 Кбит/сек
Ширина : 1920 пикселей
Высота : 1080 пикселей
Соотношение сторон : 16:9
Режим частоты кадров : Переменный
Частота кадров : 59,940 (60000/1001) кадров/сек
Минимальная частота кадров : 59,920 кадров/сек
Максимальная частота кадров : 59,960 кадров/сек
Цветовое пространство : YUV
Субдискретизация насыщенности : 4:2:0
Битовая глубина : 8 бит
Тип развёртки : Прогрессивная
Бит/(Пиксели*Кадры) : 0.032
Размер потока : 1,92 Гбайт (96%)
Библиотека кодирования : x264 core 142 r2479 dd79a61
Настройки программы : cabac=1 / ref=1 / deblock=1:0:0 / analyse=0x1:0x111 / me=hex / subme=2 / psy=1 / psy_rd=1.00:0.00 / mixed_ref=0 / me_range=16 / chroma_me=1 / trellis=0 / 8x8dct=0 / cqm=0 / deadzone=21,11 / fast_pskip=1 / chroma_qp_offset=0 / threads=36 / lookahead_threads=8 / sliced_threads=0 / nr=0 / decimate=1 / interlaced=0 / bluray_compat=0 / constrained_intra=0 / bframes=3 / b_pyramid=2 / b_adapt=1 / b_bias=0 / direct=1 / weightb=1 / open_gop=0 / weightp=1 / keyint=600 / keyint_min=60 / scenecut=40 / intra_refresh=0 / rc_lookahead=10 / rc=abr / mbtree=1 / bitrate=4000 / ratetol=1.0 / qcomp=0.60 / qpmin=0 / qpmax=69 / qpstep=4 / vbv_maxrate=20000 / vbv_bufsize=25000 / nal_hrd=none / filler=0 / ip_ratio=1.40 / aq=1:1.00
Дата кодирования : UTC 2016-10-05 11:27:53
Дата пометки : UTC 2016-10-05 11:27:53
Цветовой диапазон : Limited
Основные цвета : BT.709
Характеристики трансфера : BT.709
Коэффициенты матрицы : BT.709
Аудио
Идентификатор : 2
Формат : AAC
Формат/Информация : Advanced Audio Codec
Профиль формата : LC
Идентификатор кодека : 40
Продолжительность : 1 ч. 7 м.
Вид битрейта : Переменный
Битрейт : 160 Кбит/сек
Каналы : 2 канала
Расположение каналов : Front: L R
Частота : 48,0 КГц
Частота кадров : 46,875 кадров/сек (1024 spf)
Метод сжатия : С потерями
Размер потока : 77,8 Мбайт (4%)
Заголовок : Stereo / Stereo
Default : Да
AlternateGroup/String : 1
Дата кодирования : UTC 2016-10-05 11:27:53
Дата пометки : UTC 2016-10-05 11:27:53
Общее
Полное имя : F:\Clean Code\44\CleanCode-E44-1080p.mp4
Формат : MPEG-4
Профиль формата : Base Media / Version 2
Идентификатор кодека : mp42 (isom/iso2/avc1/mp41)
Размер файла : 916 Мбайт
Продолжительность : 58 м. 44 с.
Режим общего битрейта : Переменный
Общий поток : 2181 Кбит/сек
Дата кодирования : UTC 2016-11-10 22:56:56
Дата пометки : UTC 2016-11-10 22:56:56
Программа кодирования : HandBrake 0.10.5 2016021100
Видео
Идентификатор : 1
Формат : AVC
Формат/Информация : Advanced Video Codec
Профиль формата : [email protected]
Параметр CABAC формата : Да
Параметр ReFrames формата : 4 кадра
Идентификатор кодека : avc1
Идентификатор кодека/Информация : Advanced Video Coding
Продолжительность : 58 м. 44 с.
Битрейт : 2000 Кбит/сек
Ширина : 1920 пикселей
Высота : 1080 пикселей
Соотношение сторон : 16:9
Режим частоты кадров : Переменный
Частота кадров : 59,940 (60000/1001) кадров/сек
Минимальная частота кадров : 59,920 кадров/сек
Максимальная частота кадров : 59,960 кадров/сек
Цветовое пространство : YUV
Субдискретизация насыщенности : 4:2:0
Битовая глубина : 8 бит
Тип развёртки : Прогрессивная
Бит/(Пиксели*Кадры) : 0.016
Размер потока : 842 Мбайт (92%)
Библиотека кодирования : x264 core 142 r2479 dd79a61
Настройки программы : cabac=1 / ref=1 / deblock=1:0:0 / analyse=0x1:0x111 / me=hex / subme=2 / psy=1 / psy_rd=1.00:0.00 / mixed_ref=0 / me_range=16 / chroma_me=1 / trellis=0 / 8x8dct=0 / cqm=0 / deadzone=21,11 / fast_pskip=1 / chroma_qp_offset=0 / threads=36 / lookahead_threads=8 / sliced_threads=0 / nr=0 / decimate=1 / interlaced=0 / bluray_compat=0 / constrained_intra=0 / bframes=3 / b_pyramid=2 / b_adapt=1 / b_bias=0 / direct=1 / weightb=1 / open_gop=0 / weightp=1 / keyint=600 / keyint_min=60 / scenecut=40 / intra_refresh=0 / rc_lookahead=10 / rc=abr / mbtree=1 / bitrate=2000 / ratetol=1.0 / qcomp=0.60 / qpmin=0 / qpmax=69 / qpstep=4 / vbv_maxrate=20000 / vbv_bufsize=25000 / nal_hrd=none / filler=0 / ip_ratio=1.40 / aq=1:1.00
Дата кодирования : UTC 2016-11-10 22:56:56
Дата пометки : UTC 2016-11-10 22:56:56
Цветовой диапазон : Limited
Основные цвета : BT.709
Характеристики трансфера : BT.709
Коэффициенты матрицы : BT.709
Аудио
Идентификатор : 2
Формат : AAC
Формат/Информация : Advanced Audio Codec
Профиль формата : LC
Идентификатор кодека : 40
Продолжительность : 58 м. 44 с.
Вид битрейта : Переменный
Битрейт : 164 Кбит/сек
Каналы : 2 канала
Расположение каналов : Front: L R
Частота : 48,0 КГц
Частота кадров : 46,875 кадров/сек (1024 spf)
Метод сжатия : С потерями
Размер потока : 68,7 Мбайт (8%)
Заголовок : Stereo / Stereo
Default : Да
AlternateGroup/String : 1
Дата кодирования : UTC 2016-11-10 22:56:56
Дата пометки : UTC 2016-11-10 22:56:56
Общее
Полное имя : F:\Clean Code\45\CleanCode-E45-1080p.mp4
Формат : MPEG-4
Профиль формата : Base Media / Version 2
Идентификатор кодека : mp42 (isom/iso2/avc1/mp41)
Размер файла : 2,06 Гбайт
Продолжительность : 56 м. 2 с.
Режим общего битрейта : Переменный
Общий поток : 5270 Кбит/сек
Дата кодирования : UTC 2017-02-16 00:59:07
Дата пометки : UTC 2017-02-16 00:59:07
Программа кодирования : HandBrake 1.0.1 2016122900
Видео
Идентификатор : 1
Формат : AVC
Формат/Информация : Advanced Video Codec
Профиль формата : [email protected]
Параметр CABAC формата : Да
Параметр ReFrames формата : 4 кадра
Идентификатор кодека : avc1
Идентификатор кодека/Информация : Advanced Video Coding
Продолжительность : 56 м. 2 с.
Битрейт : 5099 Кбит/сек
Ширина : 1920 пикселей
Высота : 1080 пикселей
Соотношение сторон : 16:9
Режим частоты кадров : Постоянный
Частота кадров : 30,000 кадров/сек
Цветовое пространство : YUV
Субдискретизация насыщенности : 4:2:0
Битовая глубина : 8 бит
Тип развёртки : Прогрессивная
Бит/(Пиксели*Кадры) : 0.082
Размер потока : 2,00 Гбайт (97%)
Библиотека кодирования : x264 core 148 r2708 86b7198
Настройки программы : cabac=1 / ref=2 / deblock=1:0:0 / analyse=0x1:0x111 / me=hex / subme=6 / psy=1 / psy_rd=1.00:0.00 / mixed_ref=1 / me_range=16 / chroma_me=1 / trellis=1 / 8x8dct=0 / cqm=0 / deadzone=21,11 / fast_pskip=1 / chroma_qp_offset=-2 / threads=34 / lookahead_threads=5 / sliced_threads=0 / nr=0 / decimate=1 / interlaced=0 / bluray_compat=0 / constrained_intra=0 / bframes=3 / b_pyramid=2 / b_adapt=1 / b_bias=0 / direct=1 / weightb=1 / open_gop=0 / weightp=1 / keyint=600 / keyint_min=60 / scenecut=40 / intra_refresh=0 / rc_lookahead=30 / rc=crf / mbtree=1 / crf=22.0 / qcomp=0.60 / qpmin=0 / qpmax=69 / qpstep=4 / vbv_maxrate=20000 / vbv_bufsize=25000 / crf_max=0.0 / nal_hrd=none / filler=0 / ip_ratio=1.40 / aq=1:1.00
Дата кодирования : UTC 2017-02-16 00:59:07
Дата пометки : UTC 2017-02-16 00:59:07
Цветовой диапазон : Limited
Основные цвета : BT.709
Характеристики трансфера : BT.709
Коэффициенты матрицы : BT.709
Аудио
Идентификатор : 2
Формат : AAC
Формат/Информация : Advanced Audio Codec
Профиль формата : LC
Идентификатор кодека : 40
Продолжительность : 56 м. 1 с.
Вид битрейта : Переменный
Битрейт : 164 Кбит/сек
Каналы : 2 канала
Расположение каналов : Front: L R
Частота : 48,0 КГц
Частота кадров : 46,875 кадров/сек (1024 spf)
Метод сжатия : С потерями
Размер потока : 65,8 Мбайт (3%)
Заголовок : Stereo / Stereo
Default : Да
AlternateGroup/String : 1
Дата кодирования : UTC 2017-02-16 00:59:07
Дата пометки : UTC 2017-02-16 00:59:07
11.06.15: Проблема с эпизодом 26 устранена. Скачайте торрент заново.
24.02.16: Добавлены эпизоды 31-36. Скачайте торрент заново.
06.06.17: Добавлены эпизоды 37-45. Скачайте торрент заново.
Спасибо Marley, a_lex1989, Python_3.2 за предоставленные эпизоды и drastuj_leto - автору первоначальной раздачи.
В некоторых эпизодах (например в обеих частях эпизода №6), присутствует небольшая рассинхронизация звука и видео. В предыдущей раздаче этот дефект также присутствовал.
Download
Сайт не распространяет и не хранит электронные версии произведений, а лишь предоставляет доступ к создаваемому пользователями каталогу ссылок на торрент-файлы, которые содержат только списки хеш-сумм
Как скачивать? (для скачивания .torrent файлов необходима регистрация)
[Профиль]  [ЛС] 

hichnik222

Стаж: 8 лет

Сообщений: 2


hichnik222 · 09-Дек-15 00:29 (спустя 6 месяцев)

Огромное спасибо за отличные видео, реально полезно
А остальные серии обновить не думаете? там 37 серий уже, сдесь только 30
[Профиль]  [ЛС] 

Ice_Harley

Стаж: 9 лет 4 месяца

Сообщений: 6


Ice_Harley · 24-Фев-16 22:20 (спустя 2 месяца 15 дней)

Добавил серии 31-36, спасибо a_lex1989. Перекачайте торрент!
[Профиль]  [ЛС] 

Haunds

Стаж: 10 лет 7 месяцев

Сообщений: 3


Haunds · 10-Мар-16 09:52 (спустя 14 дней, ред. 10-Мар-16 09:52)

"E19 - Advanced TDD - Part 2" глючит, начиная с 2:30. У всех так?
PS: а раздача отличная! Спасибо!
[Профиль]  [ЛС] 

kukrobobik

Стаж: 9 лет 5 месяцев

Сообщений: 25


kukrobobik · 23-Мар-16 13:28 (спустя 13 дней, ред. 23-Мар-16 13:28)

эти новые эпизоды (после 30) нигде не достать.. огромное спасибо..
Haunds
У меня тоже глючит это когда он начинает рассказывать про сына.
в другой старой раздаче там где меньше эпизодов точно так же
[Профиль]  [ЛС] 

oleozy

Стаж: 10 лет 3 месяца

Сообщений: 264


oleozy · 25-Мар-16 20:50 (спустя 2 дня 7 часов, ред. 25-Мар-16 20:50)

Хорошая раздача, отмечусь тут чтоб потом легче было найти если понадобится.
[Профиль]  [ЛС] 

Ulfhedner

Стаж: 10 лет 9 месяцев

Сообщений: 27

Ulfhedner · 04-Апр-16 14:34 (спустя 9 дней)

Haunds писал(а):
70217489"E19 - Advanced TDD - Part 2" глючит, начиная с 2:30. У всех так?
Ага. И так где-то до 12 минуты.
[Профиль]  [ЛС] 

Haunds

Стаж: 10 лет 7 месяцев

Сообщений: 3


Haunds · 11-Апр-16 09:03 (спустя 6 дней)

Ulfhedner писал(а):
70412527
Haunds писал(а):
70217489"E19 - Advanced TDD - Part 2" глючит, начиная с 2:30. У всех так?
Ага. И так где-то до 12 минуты.
Я купил этот эпизод. Могу как-то расшарить его, чтобы добавили в раздачу?
[Профиль]  [ЛС] 

Alex Mill

VIP (Заслуженный)

Стаж: 10 лет 7 месяцев

Сообщений: 7006

Alex Mill · 11-Апр-16 09:54 (спустя 51 мин.)

Haunds
Пишите ЛС автору раздачи.
[Профиль]  [ЛС] 

morotoleris

Стаж: 9 лет 2 месяца

Сообщений: 19


morotoleris · 22-Май-16 20:42 (спустя 1 месяц 11 дней)

Hi, maybe someone has 37-40 episodes. Also Java Case Study stuff
[Профиль]  [ЛС] 

tr23

Стаж: 12 лет 7 месяцев

Сообщений: 46

tr23 · 06-Июл-16 02:34 (спустя 1 месяц 14 дней)

Один из самых лучших релизов,млин надо собрать 230 евро на Java Case Study, кто из модераторов знает способ безопасный способ краудфандинга ?
[Профиль]  [ЛС] 

krotic

Стаж: 11 лет 8 месяцев

Сообщений: 280


krotic · 06-Июл-16 02:41 (спустя 6 мин.)

tr23 писал(а):
безопасный способ краудфандинга ?
сайт для складчиков?
[Профиль]  [ЛС] 

FofanovIS

Стаж: 10 лет 11 месяцев

Сообщений: 19

FofanovIS · 11-Июл-16 20:40 (спустя 5 дней)

Давайте голосонём, кто хочет купить серии? Тоже хочу нарыть их. Кстати, часть Java Case Study у меня есть.
[Профиль]  [ЛС] 

prorokos

Стаж: 7 лет 10 месяцев

Сообщений: 1


prorokos · 17-Июл-16 22:03 (спустя 6 дней)

Haunds писал(а):
70463241
Ulfhedner писал(а):
70412527
Haunds писал(а):
70217489"E19 - Advanced TDD - Part 2" глючит, начиная с 2:30. У всех так?
Ага. И так где-то до 12 минуты.
Я купил этот эпизод. Могу как-то расшарить его, чтобы добавили в раздачу?
было бы неплохо, хочется узнать что случилось с его сыном...
[Профиль]  [ЛС] 

kukrobobik

Стаж: 9 лет 5 месяцев

Сообщений: 25


kukrobobik · 29-Июл-16 10:38 (спустя 11 дней)

уже в твитре пишут что есть 42 эпизод.
[Профиль]  [ЛС] 

jamid117191

Стаж: 6 лет 9 месяцев

Сообщений: 18


jamid117191 · 12-Авг-16 18:12 (спустя 14 дней)

has someone bought the java case study videos ...i would be much thankfull
[Профиль]  [ЛС] 

tr23

Стаж: 12 лет 7 месяцев

Сообщений: 46

tr23 · 17-Авг-16 00:32 (спустя 4 дня)

Вопрос как собрать деньги на релиз джава case study?
[Профиль]  [ЛС] 

Guttaperchi

Стаж: 7 лет 7 месяцев

Сообщений: 4


Guttaperchi · 11-Сен-16 09:07 (спустя 25 дней)

можно использовать существующую тему
вопрос только в том кому это интересно кроме тех кто отписался в теме
[Профиль]  [ЛС] 

tr23

Стаж: 12 лет 7 месяцев

Сообщений: 46

tr23 · 19-Сен-16 13:17 (спустя 8 дней)

Все кто хочет помочь деньгами для закупки java case study , идите по этой ссылке
[Профиль]  [ЛС] 

vidrasco

Стаж: 9 лет 7 месяцев

Сообщений: 3


vidrasco · 04-Окт-16 17:38 (спустя 15 дней)

Если будет соответствующая тема для Mobile App Case Study, приму участие
[Профиль]  [ЛС] 

FofanovIS

Стаж: 10 лет 11 месяцев

Сообщений: 19

FofanovIS · 23-Окт-16 12:46 (спустя 18 дней, ред. 23-Окт-16 12:46)

Кто-нибудь желает сложиться на покупку серий с 39 по 43 основного курса? 37, 38 у меня есть, которых нет в текущей раздаче.
Есть трое, кто готов, включая меня. Ещё троих хотя бы и можно будет по 14 баксов скинуться, чтобы просто каждый выкупил по серии.
В покупке Mobile App Case Study тоже готов поучаствовать. Пишите в личку.
[Профиль]  [ЛС] 

Guttaperchi

Стаж: 7 лет 7 месяцев

Сообщений: 4


Guttaperchi · 24-Окт-16 07:19 (спустя 18 часов)

FofanovIS +1 или я уже в списке?
[Профиль]  [ЛС] 

tr23

Стаж: 12 лет 7 месяцев

Сообщений: 46

tr23 · 14-Ноя-16 00:50 (спустя 20 дней, ред. 14-Ноя-16 22:30)

Народ до нового года мы джава кейс не сможем выкупить ?
Нехватает двоих для покупки.
[Профиль]  [ЛС] 

chavy

Стаж: 3 года 8 месяцев

Сообщений: 3


chavy · 19-Ноя-16 02:17 (спустя 5 дней)

tr23 писал(а):
71818227Народ до нового года мы джава кейс не сможем выкупить ?
Нехватает двоих для покупки.
я толко отписался на Java Case Study. Там видел одного уже нехватало, вигледит что все есть уже и пора за подарком :).
[Профиль]  [ЛС] 

tr23

Стаж: 12 лет 7 месяцев

Сообщений: 46

tr23 · 20-Ноя-16 00:17 (спустя 21 час)

chavy , спасибо жду от вас пс , все кто будет участвовать в покупке уже уведомленны, жду ваших эпизодов.
[Профиль]  [ЛС] 

tr23

Стаж: 12 лет 7 месяцев

Сообщений: 46

tr23 · 23-Ноя-16 23:46 (спустя 3 дня)

Народ нам нужен ещё один человек для покупки сериал java case study , если вы можете помочь напишите ЛС
[Профиль]  [ЛС] 

petrivas

Стаж: 10 лет 1 месяц

Сообщений: 115


petrivas · 25-Ноя-16 16:42 (спустя 1 день 16 часов)

За год ничего нового не вышло?
[Профиль]  [ЛС] 

tr23

Стаж: 12 лет 7 месяцев

Сообщений: 46

tr23 · 25-Ноя-16 20:34 (спустя 3 часа, ред. 25-Ноя-16 20:34)

petrivas
Почему не вышло у нас уже есть 8 эпизодов, если хотите финансово помочь для закупки оставшихся 6 серий из цикла java case study ,то напишите мне в лс.
[Профиль]  [ЛС] 

Schizo

Стаж: 14 лет 1 месяц

Сообщений: 16

Schizo · 06-Янв-17 14:56 (спустя 1 месяц 10 дней)

Собрался читать Clean Code, но нашёл эти видеоуроки. Что будет лучше - прочесть книгу, или посмотреть эту серию уроков? Или книга и видео дополняют друг-друга?
[Профиль]  [ЛС] 

morotoleris

Стаж: 9 лет 2 месяца

Сообщений: 19


morotoleris · 09-Янв-17 23:35 (спустя 3 дня)

Hi. Maybe anyone managed to get an E19 TDD with a proper sound?
[Профиль]  [ЛС] 
 
Ответить
Loading...
Error